Gillian Welch - Soul Journey (2003) FLAC (tracks+.cue)
Artist: Gillian Welch | Album: Soul Journey | Released: 2003 | Genre: Country

Tracklisting:

01. Look At Miss Ohio (4:16)
02. Make Me A Pallet On Your Floor (2:45)
03. Wayside/Back In Time (3:28)
04. I Had A Real Good Mother and Father (3:14)
05. One Monkey (5:36)
06. No One Knows My Name (3:16)
07. Lowlands (3:20)
08. One Little Song (3:12)
09. I Made A Lovers Prayer (5:03)
10. Wrecking Ball (4:56)

 Log Exact Audio Copy


Exact Audio Copy V0.99 prebeta 4 from 23. January 2008

EAC extraction logfile from 16. July 2008, 20:17

Gillian Welch / Soul Journey

Used drive  : TSSTcorpDVD+-RW TS-L532B   Adapter: 1  ID: 0

Read mode               : Secure
Utilize accurate stream : Yes
Defeat audio cache      : Yes
Make use of C2 pointers : No

Read offset correction                      : 704
Overread into Lead-In and Lead-Out          : No
Fill up missing offset samples with silence : Yes
Delete leading and trailing silent blocks   : No
Null samples used in CRC calculations       : Yes
Used interface                              : Installed external ASPI interface
Gap handling                                : Appended to previous track

Used output format              : User Defined Encoder
Selected bitrate                : 320 kBit/s
Quality                         : High
Add ID3 tag                     : No
Command line compressor         : C:Program FilesExact Audio CopyFlacflac.exe
Additional command line options : -V -8 -T "artist=%a" -T "title=%t" -T "album=%g" -T "date=%y" -T "tracknumber=%n" -T "genre=%m" %s

TOC of the extracted CD

     Track |   Start  |  Length  | Start sector | End sector
    ---------------------------------------------------------
        1  |  0:00.00 |  4:16.03 |         0    |    19202
        2  |  4:16.03 |  2:45.00 |     19203    |    31577
        3  |  7:01.03 |  3:28.27 |     31578    |    47204
        4  | 10:29.30 |  3:14.10 |     47205    |    61764
        5  | 13:43.40 |  5:36.30 |     61765    |    86994
        6  | 19:19.70 |  3:16.10 |     86995    |   101704
        7  | 22:36.05 |  3:19.65 |    101705    |   116694
        8  | 25:55.70 |  3:12.28 |    116695    |   131122
        9  | 29:08.23 |  5:03.30 |    131123    |   153877
       10  | 34:11.53 |  4:56.20 |    153878    |   176097

Track  1

     Filename D:musicForWhatGillian Welch - 2003 - Soul Journey1 - Look At Miss Ohio.wav

     Pre-gap length  0:00:02.00

     Peak level 98.1 %
     Track quality 99.9 %
     Test CRC C5F327AE
     Copy CRC C5F327AE
     Accurately ripped (confidence 18)  [2A2178DC]
     Copy OK

Track  2

     Filename D:musicForWhatGillian Welch - 2003 - Soul Journey2 - Make Me A Pallet On Your Floor.wav

     Pre-gap length  0:00:01.76

     Peak level 81.4 %
     Track quality 100.0 %
     Test CRC 6FB0AEC2
     Copy CRC 6FB0AEC2
     Accurately ripped (confidence 18)  [1667AC8E]
     Copy OK

Track  3

     Filename D:musicForWhatGillian Welch - 2003 - Soul Journey3 - Wayside,Back In Time.wav

     Pre-gap length  0:00:00.64

     Peak level 96.6 %
     Track quality 100.0 %
     Test CRC 6EB53EF1
     Copy CRC 6EB53EF1
     Accurately ripped (confidence 18)  [5AF39B8D]
     Copy OK

Track  4

     Filename D:musicForWhatGillian Welch - 2003 - Soul Journey4 - I Had A Real Good Mother and Father.wav

     Pre-gap length  0:00:00.80

     Peak level 90.3 %
     Track quality 100.0 %
     Test CRC F139554D
     Copy CRC F139554D
     Accurately ripped (confidence 18)  [08E046E3]
     Copy OK

Track  5

     Filename D:musicForWhatGillian Welch - 2003 - Soul Journey5 - One Monkey.wav

     Pre-gap length  0:00:02.29

     Peak level 99.7 %
     Track quality 100.0 %
     Test CRC 65D48596
     Copy CRC 65D48596
     Accurately ripped (confidence 18)  [80D6280E]
     Copy OK

Track  6

     Filename D:musicForWhatGillian Welch - 2003 - Soul Journey6 - No One Knows My Name.wav

     Peak level 95.3 %
     Track quality 100.0 %
     Test CRC A81CD6E2
     Copy CRC A81CD6E2
     Accurately ripped (confidence 18)  [85053C61]
     Copy OK

Track  7

     Filename D:musicForWhatGillian Welch - 2003 - Soul Journey7 - Lowlands.wav

     Pre-gap length  0:00:00.69

     Peak level 99.7 %
     Track quality 100.0 %
     Test CRC E0C4EE4B
     Copy CRC E0C4EE4B
     Accurately ripped (confidence 18)  [6FC4A360]
     Copy OK

Track  8

     Filename D:musicForWhatGillian Welch - 2003 - Soul Journey8 - One Little Song.wav

     Pre-gap length  0:00:01.40

     Peak level 93.6 %
     Track quality 100.0 %
     Test CRC 8FCC1816
     Copy CRC 8FCC1816
     Accurately ripped (confidence 18)  [F99D8A6E]
     Copy OK

Track  9

     Filename D:musicForWhatGillian Welch - 2003 - Soul Journey9 - I Made A Lovers Prayer.wav

     Peak level 95.4 %
     Track quality 100.0 %
     Test CRC 5A7CCA18
     Copy CRC 5A7CCA18
     Accurately ripped (confidence 18)  [CB5B484E]
     Copy OK

Track 10

     Filename D:musicForWhatGillian Welch - 2003 - Soul Journey10 - Wrecking Ball.wav

     Peak level 99.8 %
     Track quality 100.0 %
     Test CRC 40BA235C
     Copy CRC 40BA235C
     Accurately ripped (confidence 17)  [DD974863]
     Copy OK

All tracks accurately ripped

No errors occurred

End of status report

Single download
Gillian Welch – Look At Miss Ohio 4:16
Gillian Welch – Make Me A Pallet On Your Floor 2:45
Gillian Welch – Wayside/Back In Time 3:28
Gillian Welch – I Had A Real Good Mother and Father 3:14
Gillian Welch – One Monkey 5:36
Gillian Welch – No One Knows My Name 3:16
Gillian Welch – Lowlands 3:20
Gillian Welch – One Little Song 3:12
Gillian Welch – I Made A Lovers Prayer 5:03
Gillian Welch – Wrecking Ball 4:56

Category:Country
Main catalog

Recommended:

Willie Nelson – Band Of Brothers (2014) FLAC Erin Gibney – Bold (2018) FLAC Saintseneca – Dark Arc (2014) FLAC (tracks + .cue)

Leave a Comment